#TITLE:Strangeprogram Part. 2;
#SUBTITLE:;
#ARTIST:SharpnelSound;
#TITLETRANSLIT:;
#SUBTITLETRANSLIT:;
#ARTISTTRANSLIT:;
#CREDIT:;
#BANNER:strangeprogram pt.2 - bn.jpg;
#BACKGROUND:strangeprogram pt.2 - bg.jpg;
#LYRICSPATH:;
#CDTITLE:cdtitle.png;
#MUSIC:strangeprogram (pt.2).mp3;
#OFFSET:-2.380;
#SAMPLESTART:37.227;
#SAMPLELENGTH:9.900;
#SELECTABLE:YES;
#BPMS:0.000=215.000;
#STOPS:24.000=2.000
,57.000=5.000
,153.000=0.280
,250.000=10.300
;
#BGCHANGES:;
// cache tags:
#FIRSTBEAT:0.000;
#LASTBEAT:251.000;
#SONGFILENAME:Songs/Music V.I.P ^_^/Strangeprogram (pt.2)/Strangeprogram (pt.2).sm;
#HASMUSIC:1;
#HASBANNER:1;
#MUSICLENGTH:91.151;
// end cache tags

//---------------dance-single - ----------------
#NOTES:
     dance-single:
     :
     Challenge:
     19:
     1.000,1.000,1.000,0.187,1.000,991.000,246.000,17.000,6.000,71.000:
1001
0010
0100
0010
1001
0100
0010
0001
0110
1000
0001
0010
1100
0010
0001
0100
,
1010
0001
0100
0010
0101
1000
0010
0001
1100
0010
0100
1000
0011
0100
0010
0100
,
1001
0010
1000
0001
0110
1000
0010
0001
1100
0010
0100
0010
1001
0100
0001
0010
,
1100
0001
0100
1000
0110
0001
0010
0100
1001
0100
0010
0001
1100
0010
1101
0010
,
0101
1000
0100
0001
1010
0100
0001
1000
0110
0001
1000
0010
0101
1000
0010
0100
,
1001
0010
0100
0010
1001
0100
0001
1000
0110
0001
1000
0010
0101
0010
0001
0000
,
2222
0000
3333
0000
1001
0010
0100
0010
1001
0100
0010
0001
0110
1000
0001
0010
,
1100
0010
0001
0100
1010
0001
0100
1000
0101
0010
0001
0010
1100
0001
0100
1000
,
0011
0100
0010
0100
1001
0010
1000
0001
0110
1000
0010
0001
1100
0010
0001
0010
,
1100
0001
0100
0010
1001
0010
0100
0001
1010
0100
0010
0100
1001
0100
0010
0001
,
0110
1000
0111
1000
0011
0100
1000
0100
1010
0001
0100
0010
1100
0010
0001
0010
,
0101
1000
0010
0100
1001
0010
0100
0010
1001
0100
0001
1000
0110
0001
1000
0010
,
0101
0010
0001
0010
1100
0001
0100
0010
1001
0100
0010
1000
0101
0010
0100
0001
,
1010
0100
0001
1000
0110
0001
1000
0010
0101
1000
0010
1000
0101
0010
0100
0001
,
1010
0100
1011
0000
2222
0000
3333
0000
1001
0000
0000
0000
1100
0000
0110
0000
,
0111
0000
0110
0000
0111
0000
0110
0000
1100
0000
0110
0000
1100
0000
1000
0100
,
1000
1100
0110
0111
0110
0111
0101
1001
,
1110
0000
0101
0000
0110
0000
1110
0000
0110
0000
0101
0000
1000
0100
0010
0001
,
1000
1001
1010
1011
0101
1101
0011
0110
,
1110
0000
0110
0000
1110
0000
0110
0000
0011
0000
0110
0000
0011
0000
0001
0010
,
0001
0011
0110
1110
0110
1110
1010
1001
,
0111
0000
1010
0000
0110
0000
0111
0000
0110
0000
1010
0000
0001
0010
0100
1000
,
0001
1101
0101
1011
1010
0000
1100
1010
,
1011
0000
1010
0000
1011
0000
1010
0000
1110
0000
1010
0000
1110
0000
1000
0010
,
0100
1100
1001
1011
1010
1101
0011
0101
,
1101
0000
0101
0000
1101
0000
0011
0000
1101
0000
0101
0000
1000
0100
0010
0001
,
0010
0011
0101
1101
0101
1101
0110
0101
,
1011
0000
0110
0000
0101
0000
1011
0000
0110
0000
1011
0000
0101
0000
0001
0100
,
0010
0110
0101
1101
0110
1101
1100
0110
,
0111
0000
1100
0000
0110
0000
0111
0000
0110
0000
1100
0000
1000
0100
0010
0001
,
0010
0000
1101
0000
1110
0000
1011
0000
2222
0330
3003
0000
1111
0000
0000
0000
,
0010
1111
0000
1100
1100
1100
1111
0000
,
0100
1111
0000
0110
0110
0110
1111
0000
,
0010
1111
0000
1111
1100
1100
1111
0110
,
0111
1111
1100
1111
1100
0111
1111
0000
,
1100
1111
0000
1111
0110
0110
1111
0000
,
1100
0000
1111
0000
0001
0000
0010
0000
0100
0000
1000
0100
0000
0010
0000
0001
,
0000
0000
0000
0000
0000
0000
0000
0010
0000
0000
0000
0000
0000
0000
0000
0100
0000
0000
0000
0000
1000
0000
0000
0000
0000
0000
0000
0000
0010
0000
0000
0000
0000
0000
0000
0000
0000
0000
0000
0000
0200
0000
0000
0000
0000
0000
0000
0000
0000
0000
0000
0000
0000
0000
0000
0000
0300
0000
0000
0000
0000
0000
0000
0000
,
0000
0000
0000
0000
0110
0000
0000
0000
1010
0001
0100
1000
0011
1000
0100
0001
,
1010
0100
0001
1000
0110
0001
1000
0010
0101
0010
1000
0100
1000
0100
0011
1000
,
0110
0001
1110
0001
0110
1000
0111
1000
0010
0100
0011
0100
1000
0001
0110
1000
,
0001
0100
0011
0100
0010
0001
1100
0010
1001
0010
0101
1000
0111
1000
0011
0100
,
1011
0100
1001
0010
1101
0010
1100
0001
0110
1000
0010
0001
1100
0010
0001
0010
,
0101
1000
0010
0001
0110
1000
0001
0010
1100
0010
0001
0010
0001
1000
0110
1000
,
0110
0001
1110
0001
1010
0100
1011
0100
0001
0100
1010
0001
0100
0001
1010
0100
,
1000
0001
0110
1000
0100
0010
1001
0100
0011
0100
1010
0100
1011
0100
1010
0001
,
1110
0001
1100
0010
1101
0000
0000
0000
1000
0000
0100
0000
0010
0000
0001
0000
,
1000
0100
0010
0001
1000
0100
0010
0001
,
1000
0100
0010
0001
1000
0100
0010
0001
,
1000
0100
0010
0001
1000
0100
0010
0001
,
1000
0000
0100
0000
0010
0000
0001
0000
1000
0100
0010
0001
1000
0100
0010
0001
,
1000
0100
0010
0001
1000
0100
0010
0001
1000
0100
0010
0001
1000
0100
0010
0001
,
1000
0100
0010
0001
1000
0100
0010
0001
1000
0100
0010
0001
1000
0100
0010
0001
,
1000
0100
0010
0001
1000
0100
0010
0001
1000
0100
0010
0001
1000
0100
0010
0001
,
1000
0000
0100
0000
0010
0000
0001
0000
1000
0000
0000
0000
0000
0000
0000
0000
0001
0010
0100
1000
0001
0010
0100
1000
0001
0010
0100
1000
0001
0010
0100
1000
,
0001
0010
0100
1000
0001
0010
0100
1000
0001
0010
0100
1000
0001
0010
0100
1000
0001
0010
0100
1000
0001
0010
0100
1000
0001
0010
0100
1000
0001
0010
0100
1000
,
0001
0010
0100
1000
0001
0010
0100
1000
0001
0010
0100
1000
0001
0010
0100
1000
0001
0010
0100
1000
0001
0010
0100
1000
0001
0010
0100
1000
0001
0010
0100
1000
,
0001
0010
0100
1000
0001
0010
0100
1000
0001
0010
0100
1000
0001
0010
0100
1000
0001
0010
0100
1000
0001
0010
0100
1000
0001
0010
0100
1000
0001
0010
0100
1000
,
0001
0000
0010
0000
0100
0000
1000
0000
0001
0000
0010
0000
0100
0000
1000
0000
0000
0000
0000
0000
0000
0000
0000
0000
0000
0000
0000
0000
0000
0000
0000
0000
0001
0100
0010
1000
0001
0100
0010
1000
0001
0100
0010
1000
0001
0100
0010
1000
0001
0100
0010
1000
0001
0100
0010
1000
0001
0100
0010
1000
0001
0100
0010
1000
,
0001
0100
0010
1000
0001
0100
0010
1000
0001
0100
0010
1000
0001
0100
0010
1000
0001
0100
0010
1000
0001
0100
0010
1000
0001
0100
0010
1000
0001
0100
0010
1000
0001
0100
0010
1000
0001
0100
0010
1000
0001
0100
0010
1000
0001
0100
0010
1000
0001
0100
0010
1000
0001
0100
0010
1000
0001
0100
0010
1000
0001
0100
0010
1000
,
0001
0100
0010
1000
0001
0100
0010
1000
0001
0100
0010
1000
0001
0100
0010
1000
0001
0100
0010
1000
0001
0100
0010
1000
0001
0100
0010
1000
0001
0100
0010
1000
0001
0100
0010
1000
0001
0100
0010
1000
0001
0100
0010
1000
0001
0100
0010
1000
0001
0100
0010
1000
0001
0100
0010
1000
0001
0100
0010
1000
0001
0100
0010
1000
,
0001
0100
0010
1000
0001
0100
0010
1000
0001
0100
0010
1000
0001
0100
0010
1000
0001
0100
0010
1000
0001
0100
0010
1000
0001
0100
0010
1000
0001
0100
0010
1000
0001
0100
0010
1000
0001
0100
0010
1000
0001
0100
0010
1000
0001
0100
0010
1000
0001
0100
0010
1000
0001
0100
0010
1000
0001
0100
0010
1000
0001
0100
0010
1000
,
0001
0100
0010
1000
0001
0100
0010
1000
0001
0100
0010
1000
0001
0100
0010
1000
0000
0000
0000
0000
0000
0000
0000
0000
0000
0000
0000
0000
0000
0000
0000
0000
2MM2
0000
0000
0000
0000
0000
0000
0000
0220
0000
0000
0000
3333
0000
0000
0000
MMMM
0000
0000
0000
0000
0000
0000
0000
0000
0000
0000
0000
0000
0000
0000
0000
;
